本站推荐使用:QQ旋风下载,迅雷下载

v

您的位置: 联合资源分享电影其它电影 → 电影信息

公园 Park 2006 DVDRip XviD-VoMiT

公园 Park 2006 DVDRip XviD-VoMiT_图片预览

电骡资源 下面是用户共享的文件列表. 安装电骡后, 您可以点击这些文件名进行下载 [公园].Park.2006.DVDRip.XviD-VoMiT.avi701.23MB 全选 701.23MB 电骡主页 | 下载电骡 | 使用指南 | 如何发布

简介:
[attachment=8783:0][attachment=8784:0]

剧情介绍:

10个人,5辆车,1天......就在洛杉矶。

中午时分,洛杉矶某个偏僻的山脚公园:April 试图自杀;Krysta 和Dennis 在车中幽会,而Krysta 的工友Ian 在他们干活的宠物洗澡车上干等着;Dennis 的妻子Peg 和她最好的朋友Claire 跟踪了Dennis 并打算来个突袭捉奸;同在一间办公室里工作的四个20来岁的年轻人在一辆面包车里聊天。April 来寻求Ian 的帮助(润滑油、橡胶软管、打火机) 而Ian却打算和她一起自杀;Claire 和Peg 把正在幽会的Krysta 和Dennis 困在了Dennis 的车里然后却跑到一边谈心去了;Nathan 和Babar 向他们的同事Meredith 和Cheryl 宣布他们是裸体主义者,然而Meredith 坚持认为他们俩是同性恋。随后是脱衣比赛和敞开心扉。这一切只是洛杉矶的又一天吗?

一部小成本喜剧片,截至08年已获得四个奖项。

代码E:eMuleIncoming[公园].Park.2006.DVDRip.XviD-VoMiT.avi

   General

      Complete name : E:eMuleIncoming[公园].Park.2006.DVDRip.XviD-VoMiT.avi

      Format : AVI

      Format/Info : Audio Video Interleave

      File size : 701 MiB

      Duration : 1h 25mn

      Overall bit rate : 1 144 Kbps

      Writing application : VirtualDubMod 1.5.10.2 (build 2540/release)

      Writing library : VirtualDubMod build 2540/release

   Video

      Format : MPEG-4 Visual

      Format profile : Streaming Video@L1

      Format settings, BVOP : Yes

      Format settings, QPel : No

      Format settings, GMC : No warppoints

      Format settings, Matrix : Default

      Codec ID : XVID

      Codec ID/Hint : XviD

      Duration : 1h 25mn

      Bit rate : 943 Kbps

      Width : 640 pixels

      Height : 352 pixels

      Display aspect ratio : 16/9

      Frame rate : 23.976 fps

      Resolution : 24 bits

      Colorimetry : 4:2:0

      Scan type : Progressive

      Bits/(Pixel*Frame) : 0.175

      Stream size : 578 MiB (82%)

      Writing library : XviD 1.1.2 (UTC 2006-11-01)

   Audio

      Format : AC-3

      Format/Info : Audio Coding 3

      Codec ID : 2000

      Duration : 1h 25mn

      Bit rate mode : Constant

      Bit rate : 192 Kbps

      Channel(s) : 2 channels

      Channel positions : L R

      Sampling rate : 48.0 KHz

      Stream size : 118 MiB (17%)

      Alignment : Split accross interleaves

      Interleave, duration : 42 ms (1.00 video frame)

      Interleave, preload duration : 500 ms
-------------------------------------------------------
截图:
[attachment=8785:0][attachment=8786:0][attachment=8787:0][attachment=8788:0][attachment=8789:0]
-------------------------------------------
感谢 非¢正常于2008/05/22在VC分享此片!
用户名:                    已输入:0/128 字符
内 容:
  验证码:
·上一书籍:20th Century Superstar
·下一书籍:正义的伙伴
* 如果您下载《公园 Park 2006 DVDRip XviD-VoMiT》发现下载链接错误,请点击报告错误谢谢!
* 本站采用P2P技术,下载《公园 Park 2006 DVDRip XviD-VoMiT》的人越多速度越快。
* 为了达到最快的下载速度,推荐使用 电驴迅雷QQ旋风等下载软件下载本站资源。
* 站内提供的所有资源均收集自互联网,本站不参与《公园 Park 2006 DVDRip XviD-VoMiT》的资源制作。
* 本站若侵犯了您的版权利益, 敬请来信通知我们!
关于本站 | 网站帮助 | 广告合作 | 网站声明 | 联系我们 | 网站地图

Copyright © 2012 - 2013 Uniow.Com
联合资源分享 - 让分享变得更简单!
ICP备案编号:蜀ICP备13007150号

官方QQ群:314822859