本站推荐使用:QQ旋风下载,迅雷下载

v

您的位置: 联合资源分享音乐其它音乐 → 音乐信息

新世纪 E Nomine 2002- Das Testament 圣经 Remastered 再版

新世纪 E Nomine 2002- Das Testament 圣经 Remastered 再版_图片预览

本帖最后由 sh_login 于 2009-2-5 15:10 编辑

电骡资源 下面是用户共享的文件列表. 安装电骡后, 您可以点击这些文件名进行下载 E Nomine - Das Testament (Remastered).ape397.14MB 全选 397.14MB 电骡主页 | 下载电骡 | 使用指南 | 如何发布







[attachment=5859:0]



Das Testament 圣经是一张非常棒的专辑,它融合了电声、古典和宗教音乐的元素,并且做到了最好。男声的念白非常有穿透力,深沉而引发听者的共鸣,让人感到仿佛这不是音乐,而是来自世界末日的声音。德国的混音和拉丁语的歌词创造出感受末世的氛围,而不时出现的圣咏合唱很好的平衡了男声念白带来的黑暗。

Das Testament 作为E Nomine 的首张专辑的首张专辑,版本有很多。Das Testament (Remastered)在第一张专辑的基础上,完全重新设计到了27首曲子的版本。





CUE文件:



REM GENRE AlternRock

REM DATE 2002

REM DISCID 9011561C

REM COMMENT "ExactAudioCopy v0.95b4"

PERFORMER "E Nomine"

TITLE "Das Testament (Remastered)"

FILE "E Nomine - Das Testament (Remastered).ape" WAVE

TRACK 01 AUDIO

TITLE "Am Anfang war... Die Schoepfung"

PERFORMER "E Nomine"

FLAGS DCP

INDEX 01 00:00:00

TRACK 02 AUDIO

TITLE "Vater Unser (dt. Robert De Niro)"

PERFORMER "E Nomine"

FLAGS DCP

INDEX 00 01:10:13

INDEX 01 01:13:04

TRACK 03 AUDIO

TITLE "Das Gestaendnis (Interlude)"

PERFORMER "E Nomine"

FLAGS DCP

INDEX 00 04:40:23

INDEX 01 04:43:31

TRACK 04 AUDIO

TITLE "E Nomine (Denn Sie Wissen Nicht Was Sie Tun) (dt. Robert De Niro)"

PERFORMER "E Nomine"

FLAGS DCP

INDEX 00 04:59:57

INDEX 01 05:02:05

TRACK 05 AUDIO

TITLE "Die Stimme Des Herrn (Interlude)"

PERFORMER "E Nomine"

FLAGS DCP

INDEX 00 08:25:36

INDEX 01 08:28:36

TRACK 06 AUDIO

TITLE "Die 10 Gebote (dt. Jack Nicholson)"

PERFORMER "E Nomine"

FLAGS DCP

INDEX 00 09:07:58

INDEX 01 09:10:09

TRACK 07 AUDIO

TITLE "Der Verrat (Interlude)"

PERFORMER "E Nomine"

FLAGS DCP

INDEX 00 12:50:68

INDEX 01 12:54:25

TRACK 08 AUDIO

TITLE "Das Abendmahl (dt. Robert De Niro)"

PERFORMER "E Nomine"

FLAGS DCP

INDEX 00 13:26:26

INDEX 01 13:29:20

TRACK 09 AUDIO

TITLE "Vergeltung (Interlude)"

PERFORMER "E Nomine"

FLAGS DCP

INDEX 00 17:09:58

INDEX 01 17:13:14

TRACK 10 AUDIO

TITLE "Die Sintflut (dt. Jack Nicholson)"

PERFORMER "E Nomine"

FLAGS DCP

INDEX 00 18:19:23

INDEX 01 18:21:69

TRACK 11 AUDIO

TITLE "Die Entscheidung (Interlude)"

PERFORMER "E Nomine"

FLAGS DCP

INDEX 00 21:31:64

INDEX 01 21:34:40

TRACK 12 AUDIO

TITLE "Himmel & Hoelle (dt. Nicolas Cage)"

PERFORMER "E Nomine"

FLAGS DCP

INDEX 00 22:01:68

INDEX 01 22:04:12

TRACK 13 AUDIO

TITLE "Garten Eden (Interlude)"

PERFORMER "E Nomine"

FLAGS DCP

INDEX 00 26:29:46

INDEX 01 26:31:70

TRACK 14 AUDIO

TITLE "Der Fuerst Der Finsternis (dt. Al Pacino)"

PERFORMER "E Nomine"

FLAGS DCP

INDEX 00 27:03:31

INDEX 01 27:06:20

TRACK 15 AUDIO

TITLE "Die Mahnung (Interlude)"

PERFORMER "E Nomine"

FLAGS DCP

INDEX 00 31:44:27

INDEX 01 31:46:66

TRACK 16 AUDIO

TITLE "Bibelworte des Allmaechtigen (dt. John Travolta)"

PERFORMER "E Nomine"

FLAGS DCP

INDEX 00 32:13:57

INDEX 01 32:15:71

TRACK 17 AUDIO

TITLE "Rueckkehr aus AEgypten (Interlude)"

PERFORMER "E Nomine"

FLAGS DCP

INDEX 00 36:48:72

INDEX 01 36:51:30

TRACK 18 AUDIO

TITLE "Die Posaunen von Jericho (dt. Al Pacino)"

PERFORMER "E Nomine"

FLAGS DCP

INDEX 00 37:11:74

INDEX 01 37:15:19

TRACK 19 AUDIO

TITLE "Empfaengnis (Interlude)"

PERFORMER "E Nomine"

FLAGS DCP

INDEX 00 40:37:54

INDEX 01 40:40:53

TRACK 20 AUDIO

TITLE "Ave Maria (dt. Nicolas Cage)"

PERFORMER "E Nomine"

FLAGS DCP

INDEX 00 41:00:31

INDEX 01 41:03:36

TRACK 21 AUDIO

TITLE "Der Herr ist mein Hirte (Interlude)"

PERFORMER "E Nomine"

FLAGS DCP

INDEX 00 44:35:19

INDEX 01 44:38:34

TRACK 22 AUDIO

TITLE "Psalm 23 (dt. Al Pacino)"

PERFORMER "E Nomine"

FLAGS DCP

INDEX 00 45:30:66

INDEX 01 45:34:44

TRACK 23 AUDIO

TITLE "Die Vorsehung"

PERFORMER "E Nomine"

FLAGS DCP

INDEX 00 49:20:67

INDEX 01 49:24:33

TRACK 24 AUDIO

TITLE "Der Befehl des Koenig Herodes (dt. Al Pacino)"

PERFORMER "E Nomine"

FLAGS DCP

INDEX 00 49:37:21

INDEX 01 49:40:21

TRACK 25 AUDIO

TITLE "Himmelfahrt (Interlude)"

PERFORMER "E Nomine"

FLAGS DCP

INDEX 00 54:17:22

INDEX 01 54:19:60

TRACK 26 AUDIO

TITLE "Per L'Eternita (dt. Jack Nicholson)"

PERFORMER "E Nomine"

FLAGS DCP

INDEX 00 54:45:25

INDEX 01 54:47:25

TRACK 27 AUDIO

TITLE "Lord's Prayer (engl. Vers. Vater Unser)"

PERFORMER "E Nomine"

FLAGS DCP

INDEX 00 58:22:36

INDEX 01 58:25:57
用户名:                    已输入:0/128 字符
内 容:
  验证码:
·上一书籍:2005 全国专业技术人员职称英语等级考试辅导光盘
·下一书籍:恋爱
* 如果您下载《新世纪 E Nomine 2002- Das Testament 圣经...》发现下载链接错误,请点击报告错误谢谢!
* 本站采用P2P技术,下载《新世纪 E Nomine 2002- Das Testament 圣经...》的人越多速度越快。
* 为了达到最快的下载速度,推荐使用 电驴迅雷QQ旋风等下载软件下载本站资源。
* 站内提供的所有资源均收集自互联网,本站不参与《新世纪 E Nomine 2002- Das Testament 圣经...》的资源制作。
* 本站若侵犯了您的版权利益, 敬请来信通知我们!
关于本站 | 网站帮助 | 广告合作 | 网站声明 | 联系我们 | 网站地图

Copyright © 2012 - 2013 Uniow.Com
联合资源分享 - 让分享变得更简单!
ICP备案编号:蜀ICP备13007150号

官方QQ群:314822859