本站推荐使用:QQ旋风下载,迅雷下载

v

您的位置: 联合资源分享电影其它电影 → 电影信息

幸福的黄色电影 Torremolinos 73 Spanish Dvdrip Divx 5 05

幸福的黄色电影 Torremolinos 73 Spanish Dvdrip Divx 5 05_图片预览

本帖最后由 DefendSarajevo 于 2009-1-22 05:15 编辑

电骡资源 下面是用户共享的文件列表. 安装电骡后, 您可以点击这些文件名进行下载 [幸福的黄色电影].Torremolinos.73.(Spanish.Dvdrip).(Divx.5.05).avi700.36MB [幸福的黄色电影].Torremolinos.73.(Spanish.Dvdrip).(Divx.5.05).chs.srt86.16KB 全选 700.45MB 电骡主页 | 下载电骡 | 使用指南 | 如何发布



[attachment=5039:0][attachment=5040:0]



剧情简介 · · · · · ·



  事發生在1973年的西班牙,一個膝下無子、業績又不佳的百科全書推銷員,隨著公司轉型為性教育影片公司,他迫於生活無奈只好答應拍A片,由老婆當女主角,自己擔任導演、攝影同時身兼男主角。在越拍越熟練的情況下,他對拍電影這檔事產生了興趣,於是認真閉關完成了第一部正規的長片腳本:【TORREMOLINOS73】。

  

  這部劇本取法自柏格曼【第七封印】和【野草莓】,得到出資老闆的認同及支持,拍攝於是順利進行,但拍攝到了最後一天,出資老闆加了一場真槍實彈的床戲要他執導,否則這部電影將化為泡影;但是如果同意,就代表要看自己老婆跟別人發生關係,甚至日後要放給無數的人看?

  這故事聽起來不可思議,但保證真人真事,這個獨一無二的創作掙扎故事,發生在70年代的西班牙。這部”藝術A片”完成後,在全西班牙大概只有一千多人看過,卻在北歐造成極大的轟動。



----简介来自豆瓣----



代码E:eMuleIncoming[幸福的黄色电影].Torremolinos.73.(Spanish.Dvdrip).(Divx.5.05).avi

   General

      Complete name : E:eMuleIncoming[幸福的黄色电影].Torremolinos.73.(Spanish.Dvdrip).(Divx.5.05).avi

      Format : AVI

      Format/Info : Audio Video Interleave

      File size : 700 MiB

      Duration : 1h 27mn

      Overall bit rate : 1 119 Kbps

      Writing application : VirtualDubMod 1.5.4.1 (build 2178/release)

      Writing library : VirtualDubMod build 2178/release

   Video

      Format : MPEG-4 Visual

      Format settings, BVOP : Yes

      Format settings, QPel : No

      Format settings, GMC : No warppoints

      Format settings, Matrix : Default

      Muxing mode : Packed bitstream

      Codec ID : DX50

      Codec ID/Hint : DivX 5

      Duration : 1h 27mn

      Bit rate : 973 Kbps

      Width : 704 pixels

      Height : 384 pixels

      Display aspect ratio : 16/9

      Frame rate : 25.000 fps

      Resolution : 24 bits

      Colorimetry : 4:2:0

      Scan type : Progressive

      Bits/(Pixel*Frame) : 0.144

      Stream size : 609 MiB (87%)

      Writing library : DivX 5.0.5 (UTC 2003-04-24)

   Audio

      Format : MPEG Audio

      Format version : Version 1

      Format profile : Layer 3

      Codec ID : 55

      Codec ID/Hint : MP3

      Duration : 1h 27mn

      Bit rate mode : Variable

      Bit rate : 133 Kbps

      Nominal bit rate : 128 Kbps

      Channel(s) : 2 channels

      Sampling rate : 48.0 KHz

      Resolution : 16 bits

      Stream size : 83.3 MiB (12%)

      Alignment : Aligned on interleaves

      Interleave, duration : 24 ms (0.60 video frame)

      Interleave, preload duration : 519 ms

      Writing library : LAME3.90.

      Encoding settings : ABR

------------------------------------

截图

[attachment=4823:0][attachment=4824:0][attachment=4825:0][attachment=4826:0][attachment=4827:0]

------------------------------------------------------------------------------------

感谢9tholder于2004/11/9在VC分享此片!!!

------------------------------------------------------------------------------------

随附豆瓣网友的评论一篇,地址如下:

[color=#330099]http://www.douban.com/review/1106757/
用户名:                    已输入:0/128 字符
内 容:
  验证码:
·上一书籍:Instant Summer
·下一书籍:现代汉语专题教程
* 如果您下载《幸福的黄色电影 Torremolinos 73 Spanish D...》发现下载链接错误,请点击报告错误谢谢!
* 本站采用P2P技术,下载《幸福的黄色电影 Torremolinos 73 Spanish D...》的人越多速度越快。
* 为了达到最快的下载速度,推荐使用 电驴迅雷QQ旋风等下载软件下载本站资源。
* 站内提供的所有资源均收集自互联网,本站不参与《幸福的黄色电影 Torremolinos 73 Spanish D...》的资源制作。
* 本站若侵犯了您的版权利益, 敬请来信通知我们!
关于本站 | 网站帮助 | 广告合作 | 网站声明 | 联系我们 | 网站地图

Copyright © 2012 - 2013 Uniow.Com
联合资源分享 - 让分享变得更简单!
ICP备案编号:蜀ICP备13007150号

官方QQ群:314822859