本站推荐使用:QQ旋风下载,迅雷下载

v

您的位置: 联合资源分享电影其它电影 → 电影信息

请说爱 Just Say Love 2009 LiMiTED DVDRip

请说爱 Just Say Love 2009 LiMiTED DVDRip_图片预览

摘录自 thshare


 



81J39CBiHkL._AA1500_.jpg (178.28 KiB) 被浏览 2 次





      




简  介 

ad feedbackPhysical attractions appear to be the obvious explanation for two people to become a pair. But are they really the reflection of something sublime, everlasting or dare we say, spiritual? Do relationships start in the bedroom or in the heart? In this male love story, the bliss described by Joseph Campbell and sages throughout the millennia is a practical option for finding happiness. As the camera delves into the character's minds and actions we find fulfillment on both a physical and spiritual level.






请说爱   Just Say Love  2009  LiMiTED DVDRip


声明.JPG (19.55 KiB) 被浏览 2 次




  查源 700.13 MB 全选 700.13 MB




代码: 全选
General
Complete name                    : Just.Say.Love.2009.LiMiTED.DVDRip.XviD-SUBMERGE.(osloskop.net).avi
Format                           : AVI
Format/Info                      : Audio Video Interleave
File size                        : 700 MiB
Duration                         : 1h 15mn
Overall bit rate                 : 1 289 Kbps
Writing application              : VirtualDubMod 1.5.10.2 (build 2540/release)
Writing library                  : VirtualDubMod build 2540/release

Video
ID                               : 0
Format                           : MPEG-4 Visual
Format profile                   : Advanced Simple@L5
Format settings, BVOP            : Yes
Format settings, QPel            : No
Format settings, GMC             : No warppoints
Format settings, Matrix          : Default (H.263)
Codec ID                         : XVID
Codec ID/Hint                    : XviD
Duration                         : 1h 15mn
Bit rate                         : 1 144 Kbps
Width                            : 624 pixels
Height                           : 352 pixels
Display aspect ratio             : 16:9
Frame rate                       : 23.976 fps
Resolution                       : 8 bits
Colorimetry                      : 4:2:0
Scan type                        : Progressive
Bits/(Pixel*Frame)               : 0.217
Stream size                      : 622 MiB (89%)
Writing library                  : XviD 1.2.1 (UTC 2008-12-04)

Audio
ID                               : 1
Format                           : MPEG Audio
Format version                   : Version 1
Format profile                   : Layer 3
Mode                             : Joint stereo
Mode extension                   : MS Stereo
Codec ID                         : 55
Codec ID/Hint                    : MP3
Duration                         : 1h 15mn
Bit rate mode                    : Variable
Bit rate                         : 132 Kbps
Nominal bit rate                 : 128 Kbps
Channel(s)                       : 2 channels
Sampling rate                    : 48.0 KHz
Stream size                      : 71.6 MiB (10%)
Alignment                        : Aligned on interleaves
Interleave, duration             : 24 ms (0.58 video frame)
Interleave, preload duration     : 139 ms
Writing library                  : LAME3.90.
Encoding settings                : -m j -V 4 -q 2 -lowpass 17.6 --abr 128




用户名:                    已输入:0/128 字符
内 容:
  验证码:
·上一书籍:亚洲女星壁纸3400张
·下一书籍:疯狂DJ
* 如果您下载《请说爱 Just Say Love 2009 LiMiTED ...》发现下载链接错误,请点击报告错误谢谢!
* 本站采用P2P技术,下载《请说爱 Just Say Love 2009 LiMiTED ...》的人越多速度越快。
* 为了达到最快的下载速度,推荐使用 电驴迅雷QQ旋风等下载软件下载本站资源。
* 站内提供的所有资源均收集自互联网,本站不参与《请说爱 Just Say Love 2009 LiMiTED ...》的资源制作。
* 本站若侵犯了您的版权利益, 敬请来信通知我们!
关于本站 | 网站帮助 | 广告合作 | 网站声明 | 联系我们 | 网站地图

Copyright © 2012 - 2013 Uniow.Com
联合资源分享 - 让分享变得更简单!
ICP备案编号:蜀ICP备13007150号

官方QQ群:314822859