本站推荐使用:QQ旋风下载,迅雷下载

v

您的位置: 联合资源分享电影其它电影 → 电影信息

死海不死 The Dead Undead 2010 DVDRip

死海不死 The Dead Undead 2010 DVDRip_图片预览

摘录自 thshare





100731.jpg (36.29 KiB) 被浏览 5 次







◎译  名 死海不死
◎片  名 The Dead Undead
◎年  代 2010
◎国  家 美国
◎类  别 动作/恐怖/科幻
◎语  言 英语
◎字  幕 N/A
◎IMDB评分 3.8/10 (61 votes)
◎IMDB链接 http://www.imdb.com/title/tt0923653/
◎文件格式 XviD + MP3
◎视频尺寸 640 x 352
◎文件大小 1CD 49 x 15MB
◎片  长 89 mins
◎导  演 Matthew R. Anderson / Edward Conna
◎主  演 
Forrest J Ackerman ... Wheelchair ZomVamp
Joshua Alba ... Curtis
Matthew R. Anderson ... Viper
Edward Conna ... Doc
Hillary Enclade ... Zombie
Lance Frank ... Lance
Cameron Goodman ... Summer
Luke Goss ... Jack
Laura Kenley ... Megan
Luke LaFontaine ... Aries
Brandon Molale ... Team Leader
Johnny Pacar ... Travis
Billie Proffitt ... Billy
Vernon Wells ... Raleigh
Spice Williams-Crosby ... Gabrielle (as Spice Williams-Crosby)
Thomas Wiseman ... Vampire zombie
America Young ... Shelly






简介

A group of peaceful Vampires are infected and turned into crazed zombie like creatures whose only motivation is to feed on flesh, whether Human or Vampire. A group of Vamprie commandos tries to keep their identity secret, while trying to stop the spread of the infection. Soldiers from across the ages, it's up to these vampires to end the zombie infection. Caught in the middle is a group of human kids on a camping trip, who team up with the Vampires in an attempt to survive.




  查源 701.91 MB 全选 701.91 MB




代码: 全选
General
Complete name                    : The Dead Undead.2010.DvdRip.Xvid {1337x}-Noir.avi
Format                           : AVI
Format/Info                      : Audio Video Interleave
File size                        : 702 MiB
Duration                         : 1h 29mn
Overall bit rate                 : 1 102 Kbps
Writing application              : Noir's Hyper HD Xvid
Writing library                  : VirtualDub build 32817/release
Original source form             : Noir's Shit
Copyright                        : By Noir

Video
ID                               : 0
Format                           : MPEG-4 Visual
Format profile                   : Advanced Simple@L5
Format settings, BVOP            : Yes
Format settings, QPel            : No
Format settings, GMC             : No warppoints
Format settings, Matrix          : Default (H.263)
Muxing mode                      : Packed bitstream
Codec ID                         : XVID
Codec ID/Hint                    : XviD
Duration                         : 1h 29mn
Bit rate                         : 976 Kbps
Width                            : 640 pixels
Height                           : 352 pixels
Display aspect ratio             : 16:9
Frame rate                       : 25.000 fps
Color space                      : YUV
Chroma subsampling               : 4:2:0
Bit depth                        : 8 bits
Scan type                        : Progressive
Bits/(Pixel*Frame)               : 0.173
Stream size                      : 622 MiB (89%)
Writing library                  : XviD 1.3.0.dev55

Audio
ID                               : 1
Format                           : MPEG Audio
Format version                   : Version 1
Format profile                   : Layer 3
Mode                             : Joint stereo
Mode extension                   : MS Stereo
Codec ID                         : 55
Codec ID/Hint                    : MP3
Duration                         : 1h 29mn
Bit rate mode                    : Variable
Bit rate                         : 112 Kbps
Channel(s)                       : 2 channels
Sampling rate                    : 44.1 KHz
Stream size                      : 71.9 MiB (10%)
Alignment                        : Aligned on interleaves
Interleave, duration             : 26 ms (0.65 video frame)
Interleave, preload duration     : 521 ms
Writing library                  : LAME3.98.4




用户名:                    已输入:0/128 字符
内 容:
  验证码:
·上一书籍:铁齿铜牙纪晓岚4
·下一书籍:学园的炼金术士们
* 如果您下载《死海不死 The Dead Undead 2010 DVDRip》发现下载链接错误,请点击报告错误谢谢!
* 本站采用P2P技术,下载《死海不死 The Dead Undead 2010 DVDRip》的人越多速度越快。
* 为了达到最快的下载速度,推荐使用 电驴迅雷QQ旋风等下载软件下载本站资源。
* 站内提供的所有资源均收集自互联网,本站不参与《死海不死 The Dead Undead 2010 DVDRip》的资源制作。
* 本站若侵犯了您的版权利益, 敬请来信通知我们!
关于本站 | 网站帮助 | 广告合作 | 网站声明 | 联系我们 | 网站地图

Copyright © 2012 - 2013 Uniow.Com
联合资源分享 - 让分享变得更简单!
ICP备案编号:蜀ICP备13007150号

官方QQ群:314822859