本站推荐使用:QQ旋风下载,迅雷下载

v

您的位置: 联合资源分享电影其它电影 → 电影信息

靓模暴毙事件 Drop Dead Gorgeous 2010 DvDRip

靓模暴毙事件 Drop Dead Gorgeous 2010 DvDRip_图片预览

摘录自 thshare





db5c9424227873be.jpg (30.06 KiB) 被浏览 18 次







◎译  名 靓模暴毙事件
◎片  名 Drop Dead Gorgeous
◎年  代 2010
◎国  家 美国
◎类  别 喜剧/剧情
◎语  言 英语
◎字  幕 N/A
◎IMDB评分 (awaiting 5 votes)
◎IMDB链接 http://www.imdb.com/title/tt1199453/
◎文件格式 XviD + AC3
◎视频尺寸 720 x 384
◎文件大小 1CD 96 x 15MB
◎片  长 92 Mins
◎导  演 Philip Alderton
◎主  演 
Steven Berkoff
Jeremy London
Joshua Cox ... Phillipe (as Josh Coxx)
Nicholas Irons ... Peter
Natasha Alam ... Stella
Vernon Wells
Kirsten Berman ... Susie
David Avallone ... Claudio's Cameraman
Nikki Flux ... Jillian
Hal Havins ... BillyDea
Veronica Lauren ... Fiona
Sandra Luesse ... Mary Kessler - Narrator
Dawn Olivieri ... Brooke
Jason Stuart ... Tim Honda








简介

Aspiring model, Cynthia, becomes the focus of a documentary when she is chosen as the face for the world's biggest fashion designer...




  查源 1.45 GB 全选 1.45 GB



靓模暴毙事件  Drop Dead Gorgeous 2010 DvDRip


声明.JPG (19.55 KiB) 被浏览 18 次







代码: 全选
   General
      Complete name :Drop.Dead.Gorgeous.2010.DvDRip.XviD.Ac3.Feel-Free
      Format : AVI
      Format/Info : Audio Video Interleave
      File size : 1.45 GiB
      Duration : 1h 32mn
      Overall bit rate : 2 243 Kbps
   Video #0
      Muxing mode : Packed bitstream
      Codec ID : XVID
      Codec ID/Hint : XviD
      Duration : 1h 32mn
      Bit rate : 1 786 Kbps
      Width : 720 pixels
      Height : 384 pixels
      Display aspect ratio : 1.875
      Frame rate : 25.000 fps
      Resolution : 24 bits
      Colorimetry : 4:2:0
      Scan type : Progressive
      Bits/(Pixel*Frame) : 0.258
      Stream size : 1.16 GiB (80%)
      Writing library : XviD 1.2.1 (UTC 2008-12-04)
   Audio #1
      ID : 1
      Format : AC-3
      Format/Info : Audio Coding 3
      Codec ID : 2000
      Duration : 1h 32mn
      Bit rate mode : Constant
      Bit rate : 448 Kbps
      Channel(s) : 6 channels
      Channel positions : Front: L C R, Surround: L R, LFE
      Sampling rate : 48.0 KHz
      Stream size : 297 MiB (20%)
      Alignment : Split accross interleaves
      Interleave, duration : 40 ms (1.00 video frame)
      Interleave, preload duration : 500 ms




用户名:                    已输入:0/128 字符
内 容:
  验证码:
·上一书籍:十七岁
·下一书籍:古惑仔电影音乐大结局
* 如果您下载《靓模暴毙事件 Drop Dead Gorgeous 2010 DvD...》发现下载链接错误,请点击报告错误谢谢!
* 本站采用P2P技术,下载《靓模暴毙事件 Drop Dead Gorgeous 2010 DvD...》的人越多速度越快。
* 为了达到最快的下载速度,推荐使用 电驴迅雷QQ旋风等下载软件下载本站资源。
* 站内提供的所有资源均收集自互联网,本站不参与《靓模暴毙事件 Drop Dead Gorgeous 2010 DvD...》的资源制作。
* 本站若侵犯了您的版权利益, 敬请来信通知我们!
关于本站 | 网站帮助 | 广告合作 | 网站声明 | 联系我们 | 网站地图

Copyright © 2012 - 2013 Uniow.Com
联合资源分享 - 让分享变得更简单!
ICP备案编号:蜀ICP备13007150号

官方QQ群:314822859