本站推荐使用:QQ旋风下载,迅雷下载

v

您的位置: 联合资源分享综艺科教节目 → 综艺信息

世界上最棒的汽车节目Top Gear Russia 第一季陆续更新中

世界上最棒的汽车节目Top Gear Russia 第一季陆续更新中_图片预览

简介:


Top Gear Russia (Russian: Top Gear: Русская версия) is a Russian motoring television series on Ren-TV, based on the British programme Top Gear produced by the BBC. It premiered on 22 February 2009.
The hosts chosen for Top Gear Russia are:
Nikolai Fomenko, Pop star, race car driver, theater actor and TV presenter. He is also involved in the creation of the Russian hybrid supercar Marussia.
Mikhail Petrovsky, actor, automotive journalist and blogger.
Oskar Kuchera, TV presenter and actor.
The local version of the mysterious Stig who appears in the British show
NFO:
General
Format : AVI
Format/Info : Audio Video Interleave
File size : 419 MiB
Duration : 47mn 49s
Overall bit rate : 1 225 Kbps
Writing application : VirtualDubModRus 1.5.10.2 (build 2542/release)
Writing library : VirtualDubMod build 2542/release
Video
ID : 0
Format : MPEG-4 Visual
Format settings, BVOP : Yes
Format settings, QPel : No
Format settings, GMC : No warppoints
Format settings, Matrix : Default (H.263)
Muxing mode : Packed bitstream
Codec ID : DX50
Codec ID/Hint : DivX 5
Duration : 47mn 49s
Bit rate : 1 055 Kbps
Width : 544 pixels
Height : 400 pixels
Display aspect ratio : 4:3
Frame rate : 25.000 fps
Resolution : 24 bits
Colorimetry : 4:2:0
Scan type : Progressive
Bits/(Pixel*Frame) : 0.194
Stream size : 361 MiB (86%)
Writing library : DivX 6.8.4
Audio
ID : 1
Format : MPEG Audio
Format version : Version 1
Format profile : Layer 2
Codec ID : 50
Codec ID/Hint : MP1
Duration : 47mn 49s
Bit rate mode : Constant
Bit rate : 160 Kbps
Channel(s) : 2 channels
Sampling rate : 48.0 KHz
Resolution : 16 bits
Stream size : 54.7 MiB (13%)
Alignment : Split accross interleaves
Interleave, duration : 40 ms (1.00 video frame)
Interleave, preload duration : 500 ms
List of Top Gear Russia episodes
Series # Episode # Title Reviews Challenge Guest Original airdate
1 1 Series 01, Episode 01 Mazda Miata vs. 1985 Porsche 911 vs. Range Rover Sport Get to Vasilevsky Ostrov in a Porsche Boxster against a Powerboat in St. Petersburg Albert Demchenko, Karina Koks, Yury Grymov, Masha Tsigal and Alexei Mitrofanov 22 February 2009 (2009-02-22)
1 2 Series 01, Episode 02 Porsche 911 Cabrio B Turbo vs. Aston Martin V8 Roadster Vantage Used cars for 20,000 rubles [400 GBP] [666.96 USD] Alexander Marshal 1 March 2009 (2009-03-01)
1 3 Series 01, Episode 03 BMW Alpina B3 BiTurbo Coupe
2007 Ford Mustang vs. 1964 Ford Mustang GAZ-66 is being stress-tested in heavy conditions Nikas Safronov 8 March 2009 (2009-03-08)
1 4 Series 01, Episode 04 Aston Martin DBS Car stunts challenge in a VAZ 21099 Samara Dmitry Nosov 15 March 2009 (2009-03-15)
1 5 Series 01, Episode 05 Ferrari 550 Maranello
Jaguar X-Type Estate Who can earn the most money as a taxi driver
GAZ-66 is set on fire and drowned and still works Nepara 22 March 2009 (2009-03-22)
1 6 Series 01, Episode 06 Lamborghini Gallardo
Alfa Romeo MiTo vs. Mini Cooper S Fomenko works as a Limo Driver in a Hummer H2 Stretched Limousine Anatoliy Kucherena 5 April 2009 (2009-04-05)
1 7 Series 01, Episode 07 Audi R8 The guys test out the Mercedes-Benz GL-Class, Audi Q7 and the Range Rover by driving to Suzdal for Maslenitsa Elena Zakharova 12 April 2009 (2009-04-12)
1 8 Series 01, Episode 08 Fiat 500 Girly cars test; Opel Corsa and the Toyota Yaris Valerii Nikolaev 19 April 2009 (2009-04-19)
1 9 Series 01, Episode 09 Opel Monza Volvo XC90 vs Ferrari F430, Volga Roadster Irakliy 13 September 2009 (2009-09-13)
1 10 Series 01, Episode 10 Nissan GT-R Nissan Silvia for drifting Maria Rumyanceva 20 September 2009 (2009-09-20)
1 11 Series 01, Episode 11 - Winter adventures: Hummer H3 vs snowmobile and dog sled Denis Simachev 27 September 2009 (2009-09-27)
1 12 Series 01, Episode 12 Smart Fortwo and Lexus RX400h Land Rover Defender SVX vs UAZ Hunter Victoria Pier-Marie 4 October 2009 (2009-10-04)
1 13 Series 01, Episode 13 Bentley Continental GT Speed and BMW 7 Top Gear Awards Seryoga 11 October 2009 (2009-10-11)
1 14 Series 01, Episode 14 - Best bits of the series - 18 October 2009 (2009-10-18)
1 15 Series 01, Episode 15 - Best bits of the series - 25 October 2009 (2009-10-25)
用户名:                    已输入:0/128 字符
内 容:
  验证码:
·上一书籍:Concrete Rose
·下一书籍:Good Girls Go Bad
* 如果您下载《世界上最棒的汽车节目Top Gear Russia 第一季陆续更新中》发现下载链接错误,请点击报告错误谢谢!
* 本站采用P2P技术,下载《世界上最棒的汽车节目Top Gear Russia 第一季陆续更新中》的人越多速度越快。
* 为了达到最快的下载速度,推荐使用 电驴迅雷QQ旋风等下载软件下载本站资源。
* 站内提供的所有资源均收集自互联网,本站不参与《世界上最棒的汽车节目Top Gear Russia 第一季陆续更新中》的资源制作。
* 本站若侵犯了您的版权利益, 敬请来信通知我们!
关于本站 | 网站帮助 | 广告合作 | 网站声明 | 联系我们 | 网站地图

Copyright © 2012 - 2013 Uniow.Com
联合资源分享 - 让分享变得更简单!
ICP备案编号:蜀ICP备13007150号

官方QQ群:314822859