本站推荐使用:QQ旋风下载,迅雷下载

v

您的位置: 联合资源分享电影欧美片 → 电影信息

致命抉择 Choose 2010 DVDRip

致命抉择 Choose 2010 DVDRip_图片预览



转载请注明 致命抉择  Choose 2010 DVDRip





◎译  名 致命抉择
◎片  名 Choose
◎年  代 2010
◎国  家 美国
◎类  别 罪案/剧情/恐怖/惊悚
◎语  言 英语
◎字  幕 N/A
◎IMDB评分 5.3/10 (18 votes)
◎IMDB链接 http://www.imdb.com/title/tt1325723/
◎文件格式 XviD + MP3
◎视频尺寸 640 x 480
◎文件大小 1CD 50 x 15MB
◎片  长 82 mins
◎导  演 Marcus Graves
◎主  演 
Katheryn Winnick,
Nicholas Tucci,
Kevin Pollak,
Richard Short,
Bruce Dern,
Henry Baker,
Talia Balsam,
Marilyn Berry,
Gary Cherkassky,
Tom Cleary,
Barbara Ann Davison,
Shana Dowdeswell,







简介

A journalism student tracks a killer with the help of her detective father and a therapist.







代码 General
Complete name               : Choose.2010.DVDRip.XviD-TZiLLA.avi
Format                   : AVI
Format/Info               : Audio Video Interleave
File size                 : 972 MiB
Duration                 : 1h 22mn
Overall bit rate             : 1 639 Kbps
Writing application           : Lavf52.73.0

Video
Format                   : xvid
Codec ID                 : xvid
Duration                 : 1h 22mn
Bit rate                 : 1 498 Kbps
Width                   : 640 pixels
Height                   : 480 pixels
Display aspect ratio         : 4:3
Frame rate                 : 29.970 fps
Bits/(Pixel*Frame)           : 0.163
Stream size               : 888 MiB (91%)

Audio
ID                     : 1
Format                   : MPEG Audio
Format version             : Version 1
Format profile             : Layer 2
Codec ID                 : 50
Duration                 : 1h 22mn
Bit rate mode               : Constant
Bit rate                 : 128 Kbps
Channel(s)                 : 2 channels
Sampling rate               : 44.1 KHz
Stream size               : 75.9 MiB (8%)
Alignment                 : Aligned on interleaves
Interleave, duration         : 26 ms (0.78 video frame)


用户名:                    已输入:0/128 字符
内 容:
  验证码:
·上一书籍:Ash Vol 2 - I 39 m Ur Woman Poster
·下一书籍:读者200801期
* 如果您下载《致命抉择 Choose 2010 DVDRip》发现下载链接错误,请点击报告错误谢谢!
* 本站采用P2P技术,下载《致命抉择 Choose 2010 DVDRip》的人越多速度越快。
* 为了达到最快的下载速度,推荐使用 电驴迅雷QQ旋风等下载软件下载本站资源。
* 站内提供的所有资源均收集自互联网,本站不参与《致命抉择 Choose 2010 DVDRip》的资源制作。
* 本站若侵犯了您的版权利益, 敬请来信通知我们!
关于本站 | 网站帮助 | 广告合作 | 网站声明 | 联系我们 | 网站地图

Copyright © 2012 - 2013 Uniow.Com
联合资源分享 - 让分享变得更简单!
ICP备案编号:蜀ICP备13007150号

官方QQ群:314822859